#TITLE:2002;
#SUBTITLE:;
#ARTIST:Tiger Yamato;
#TITLETRANSLIT:;
#SUBTITLETRANSLIT:;
#ARTISTTRANSLIT:;
#CREDIT:;
#BANNER:;
#BACKGROUND:2002bkg.png;
#LYRICSPATH:;
#CDTITLE:;
#MUSIC:2002.mp3;
#MUSICLENGTH:89.077;
#OFFSET:-0.040;
#SAMPLESTART:7.145;
#SAMPLELENGTH:12.000;
#SELECTABLE:YES;
#BPMS:0.000=132.620;
#STOPS:;
#BGCHANGES:;
#FIRSTBEAT:8.000;

#LASTBEAT:191.500;

#SONGFILENAME:Songs/EXTRA/2002/2002.sm;

#HASMUSIC:1;

#HASBANNER:0;


//---------------dance-single - MANIAC----------------
#NOTES:
     dance-single:
     MANIAC:
     hard:
     9:
     0.542,0.537,0.236,0.000,0.297,317.000,21.000,0.000,0.000,0.000:  // measure 1
0000
0000
0000
0000
,  // measure 2
0000
0000
0000
0000
,  // measure 3
0010
0000
0010
0000
,  // measure 4
0010
0010
0000
0010
,  // measure 5
1001
0000
0000
0010
0001
0000
1000
0000
0001
0100
0000
0000
0001
0000
1000
0000
,  // measure 6
0001
0000
0000
0010
0001
0000
1000
0000
0101
0000
0000
1000
0001
0000
0001
0000
,  // measure 7
1001
0000
0000
0010
0001
0000
1000
0000
0001
0100
0000
0000
0001
0000
1000
0000
,  // measure 8
0001
0000
0000
0010
0001
0000
1000
0000
0101
0000
0000
1000
0001
0000
0001
0000
,  // measure 9
1001
0000
0000
0010
1000
0000
0001
0000
1000
0100
0000
0000
1000
0000
0001
0000
,  // measure 10
1000
0000
0000
0010
1000
0000
0001
0000
1100
0000
0000
0001
1000
0000
1000
0000
,  // measure 11
1001
0000
0000
0010
1000
0000
0001
0000
1000
0100
0000
0000
1000
0000
0001
0000
,  // measure 12
1000
0000
0000
0010
1000
0000
0001
0000
1100
0000
0000
0001
1000
0000
1000
0000
,  // measure 13
0000
0010
0100
0001
0100
0000
1100
0000
,  // measure 14
0000
1000
0001
0010
0001
0000
0011
0000
,  // measure 15
0000
0100
0001
0010
0001
0000
1001
0000
,  // measure 16
0000
0010
1000
0100
0010
0000
0110
0000
,  // measure 17
0000
0000
0100
0000
0010
0000
0001
0000
1000
0000
0100
1000
0000
0001
1000
0100
,  // measure 18
0000
0001
1000
0010
0100
0000
0101
0100
,  // measure 19
0010
0000
0001
0000
0100
0000
0001
0000
1000
0000
0010
0100
0000
0100
0001
1000
,  // measure 20
0000
0000
1000
0000
0001
0000
0000
0000
0100
0000
0000
0010
0000
0000
0010
0000
,  // measure 21
0010
0001
0100
0000
0100
0000
0000
0000
0010
1000
0100
0000
0100
0000
0000
0000
,  // measure 22
1000
0001
0010
0000
0010
0000
0000
0000
0001
1000
0010
0000
0010
0000
0000
0000
,  // measure 23
0100
1000
0001
0000
0010
0000
0000
0000
0100
0001
1000
0000
0010
0000
0000
0000
,  // measure 24
1000
0100
1000
0000
1000
0000
0000
0000
0001
0100
0001
0000
0001
0000
0000
0000
,  // measure 25
0010
1000
0100
0000
0100
0000
0000
0000
0010
0001
0100
0000
0100
0000
0000
0000
,  // measure 26
0000
1000
0000
0100
0000
0010
0000
0001
,  // measure 27
0001
1000
0010
0000
0010
0000
0000
0000
0001
1000
0100
0000
0100
0000
0000
0000
,  // measure 28
0100
0001
1000
0000
0100
0000
0000
0000
0100
1000
0001
0000
0100
0000
0000
0000
,  // measure 29
1000
0010
0000
0010
0000
0010
0001
0000
,  // measure 30
0001
0010
0000
0010
0000
0010
1000
0000
,  // measure 31
1000
0100
0000
0100
0000
0100
0001
0000
,  // measure 32
0001
0100
0000
0100
0000
0100
1000
0000
,  // measure 33
1000
0010
0000
0100
0001
0000
0001
1000
,  // measure 34
0100
0010
0000
0010
0001
0000
0001
0100
,  // measure 35
0010
0100
0000
0100
0001
0000
0001
1000
,  // measure 36
0100
1000
0000
1000
0010
0000
0000
0000
,  // measure 37
1001
0000
0000
0010
0001
0000
1000
0000
0001
0100
0000
0000
0001
0000
1000
0000
,  // measure 38
0001
0000
0000
0010
0001
0000
1000
0000
0101
0000
0000
1000
0001
0000
0001
0000
,  // measure 39
1001
0000
0000
0010
0001
0000
1000
0000
0001
0100
0000
0000
0001
0000
1000
0000
,  // measure 40
0001
0000
0000
0010
0001
0000
1000
0000
0101
0000
0000
1000
0001
0000
0001
0000
,  // measure 41
1001
0000
0000
0010
1000
0000
0001
0000
1000
0100
0000
0000
1000
0000
0001
0000
,  // measure 42
1000
0000
0000
0010
1000
0000
0001
0000
1100
0000
0000
0001
1000
0000
1000
0000
,  // measure 43
1001
0000
0000
0010
1000
0000
0001
0000
1000
0100
0000
0000
1000
0000
0001
0000
,  // measure 44
1000
0000
0000
0010
1000
0000
0001
0000
1100
0000
0000
0001
1000
0000
1000
0000
,  // measure 45
0100
0100
0010
0010
0001
0001
0010
0010
,  // measure 46
1000
1000
0010
0010
0001
0001
0100
0100
,  // measure 47
0001
0001
1000
1000
0010
0010
0100
0100
,  // measure 48
0001
0001
1000
1000
0100
0100
0010
0010
;

//---------------dance-single - ANOTHER----------------
#NOTES:
     dance-single:
     ANOTHER:
     medium:
     6:
     0.385,0.348,0.011,0.034,0.185,236.000,1.000,3.000,0.000,0.000:  // measure 1
0000
0000
0000
0000
,  // measure 2
0000
0000
0000
0000
,  // measure 3
1000
0000
0001
0000
,  // measure 4
0100
0000
0010
0010
,  // measure 5
0001
0000
0000
0100
0000
0000
0010
0000
0000
0010
0000
0000
1000
0000
0100
0000
,  // measure 6
0010
0000
0000
0001
0000
0000
0010
0000
0010
0000
0000
0001
0000
0000
1000
0000
,  // measure 7
0001
0000
0000
0100
0000
0000
0010
0000
0000
0010
0000
0000
1000
0000
0100
0000
,  // measure 8
0010
0000
0000
0001
0000
0000
0010
0000
0010
0000
0000
0001
0000
0000
1000
0000
,  // measure 9
0100
0000
0000
0010
0000
0000
0001
0000
0000
0100
0000
0000
1000
0000
0010
0000
,  // measure 10
0100
0000
0000
0001
0000
0000
0001
0000
1000
0000
0000
0010
0000
0000
0100
0000
,  // measure 11
0100
0000
0000
0010
0000
0000
0001
0000
0000
0100
0000
0000
1000
0000
0010
0000
,  // measure 12
0100
0000
0000
0001
0000
0000
0001
0000
1000
0000
0000
0010
0000
0000
0100
0000
,  // measure 13
1000
0000
0010
0000
1000
0001
0010
0000
,  // measure 14
0010
0001
1000
0000
0100
0000
0010
0000
,  // measure 15
0100
0100
0010
0000
0100
0010
0001
0000
,  // measure 16
0001
0000
1000
0000
0010
0000
0001
0010
,  // measure 17
1000
0000
0100
0000
0010
0000
0001
1000
,  // measure 18
0100
0000
0100
0000
0010
1000
0000
1000
,  // measure 19
0100
0010
0100
0000
0001
0000
0001
0000
,  // measure 20
1000
0000
1000
0000
0010
0000
0000
0000
1000
0000
0000
0100
0000
0000
1000
0000
,  // measure 21
0100
0100
0100
0000
0001
0001
0001
0000
,  // measure 22
0010
0010
0010
0000
1000
1000
1000
0000
,  // measure 23
0010
0010
0010
0000
0100
0100
0100
0000
,  // measure 24
0001
0001
0001
0000
1000
1000
1000
0000
,  // measure 25
0010
0010
0010
0000
0100
0100
0100
0000
,  // measure 26
0202
0000
0000
0303
,  // measure 27
1000
1000
1000
0000
0001
0001
0001
0000
,  // measure 28
0010
0010
0010
0000
0100
0100
0100
0000
,  // measure 29
1000
0100
0010
0001
,  // measure 30
1000
0000
0010
0000
1000
0000
0100
0010
,  // measure 31
0001
1000
0100
1000
,  // measure 32
0010
1000
1000
0001
,  // measure 33
0100
0010
0001
1000
,  // measure 34
0010
0000
0100
0000
0001
0000
0010
0001
,  // measure 35
1000
0010
0100
0000
,  // measure 36
0001
0000
1000
0000
0001
1000
0001
0000
,  // measure 37
0001
0000
0000
0100
0000
0000
0010
0000
0000
0010
0000
0000
1000
0000
0100
0000
,  // measure 38
0010
0000
0000
0001
0000
0000
0010
0000
0010
0000
0000
0001
0000
0000
1000
0000
,  // measure 39
0001
0000
0000
0100
0000
0000
0010
0000
0000
0010
0000
0000
1000
0000
0100
0000
,  // measure 40
0010
0000
0000
0001
0000
0000
0010
0000
0010
0000
0000
0001
0000
0000
1000
0000
,  // measure 41
0100
0000
0000
0010
0000
0000
0001
0000
0000
0100
0000
0000
1000
0000
0010
0000
,  // measure 42
0100
0000
0000
0001
0000
0000
0001
0000
1000
0000
0000
0010
0000
0000
0100
0000
,  // measure 43
0100
0000
0000
0010
0000
0000
0001
0000
0000
0100
0000
0000
1000
0000
0010
0000
,  // measure 44
0100
0000
0000
0001
0000
0000
0001
0000
1000
0000
0000
0010
0000
0000
0100
0000
,  // measure 45
1000
0100
0010
0001
,  // measure 46
0010
0100
1000
0100
,  // measure 47
0001
0100
1000
0010
,  // measure 48
1000
0001
0020
0031
;

//---------------dance-single - BASIC----------------
#NOTES:
     dance-single:
     BASIC:
     easy:
     3:
     0.192,0.240,0.000,0.034,0.000,117.000,0.000,3.000,0.000,0.000:  // measure 1
0000
0000
0000
0000
,  // measure 2
0000
0000
0000
0000
,  // measure 3
0100
0000
0000
0000
,  // measure 4
0001
0000
1000
0000
,  // measure 5
0010
0010
0010
0010
,  // measure 6
1000
1000
1000
1000
,  // measure 7
0001
0001
0001
0001
,  // measure 8
0010
0010
0010
0010
,  // measure 9
0100
0100
0100
0100
,  // measure 10
1000
1000
1000
1000
,  // measure 11
0001
0001
0001
0001
,  // measure 12
0100
0100
0100
0100
,  // measure 13
1000
0000
0010
0000
,  // measure 14
0001
0000
0100
0000
,  // measure 15
0001
0000
1000
0000
,  // measure 16
0010
0000
0000
0000
,  // measure 17
0001
0000
1000
0000
,  // measure 18
0010
0000
0100
0000
,  // measure 19
0100
0000
0001
0000
,  // measure 20
1000
0000
0000
0000
,  // measure 21
0010
0010
0000
0000
,  // measure 22
1000
1000
0000
0000
,  // measure 23
0010
0010
0000
0000
,  // measure 24
0001
0001
0000
0000
,  // measure 25
0100
0100
0000
0000
,  // measure 26
0001
0001
0000
0000
,  // measure 27
1000
1000
0000
0000
,  // measure 28
0010
0010
0000
0000
,  // measure 29
2000
0000
0000
0000
,  // measure 30
0001
0000
0001
3000
,  // measure 31
0200
0000
0000
0000
,  // measure 32
0010
0000
0010
0300
,  // measure 33
2000
0000
0000
0000
,  // measure 34
0010
0000
0001
3000
,  // measure 35
0001
0000
1000
0000
,  // measure 36
0001
1000
0001
0010
,  // measure 37
0100
0100
0100
0100
,  // measure 38
0010
0010
0010
0010
,  // measure 39
1000
1000
1000
1000
,  // measure 40
0100
0100
0100
0100
,  // measure 41
0010
0010
0010
0010
,  // measure 42
0001
0001
0001
0001
,  // measure 43
0100
0100
0100
0100
,  // measure 44
0010
0010
0010
0010
,  // measure 45
1000
0000
0000
0000
,  // measure 46
0010
0000
0000
0000
,  // measure 47
0001
0000
0000
0000
,  // measure 48
0100
0000
0010
0000
;
